Tuyển tập các bài hát chọn lọc hay nhất của bé Xuân Mai - Mua bán key Windows 10 bản quyền,Mua bán key Office bản quyền,Mua bán Key Windows Server bản quyền,

728x90 AdSpace

http://lh3.ggpht.com/-PE2fb8WF1XI/VfL9f7IygsI/AAAAAAAAN-E/Fj9gFp7BZFo/s1600-r/Logo.png
Trending
Saturday, February 24, 2018

Tuyển tập các bài hát chọn lọc hay nhất của bé Xuân Mai

Tuyển tập các bài hát chọn lọc hay nhất của bé Xuân Mai

1. Giới thiệu chương trình nghệ sĩ Thanh Bạch
2. Cây trúc xinh ( Dân ca quan họ )
3. Rap 36 phố phường
4. Hò Ba Ly ( Dân ca Quảng Nam )
5. Múa sập ( Dân ca Thái )
6. Gà gáy te te ( Dân ca Cống )
7. Thiên đáng búp bê ( Tam ca áo trắng )
 8. Múa Ấn Độ
9. Giao lưu nói chuyện với khán giả và trẻ em
10. Ru Em ( Dân ca Xê Đăng )
11. Ngọc Sơn và bé Xuân Mai
12. Bé Chúc Tết
13. 36 thứ chim ( Dân ca quan họ )
14. You are my Sun Shine
15. Peter and Hammer
16. Lý cây bông ( Dân ca Nam Bộ )
17. Ai thương con nhiều hơn.
18. Bé học đàn Piano

Format                      : MPEG-4
Format profile              : Base Media
Codec ID                    : isom (mp41)
File size                   : 4.20 GiB
Duration                    : 1 h 11 min
Overall bit rate mode       : Variable
Overall bit rate            : 8 409 kb/s
Codirector                  : codirector
Production studio           : studio
ContentType                 : Unknown Type
Encoded date                : UTC 2018-02-18 03:07:19
Tagged date                 : UTC 2018-02-18 03:07:20

Video
ID                          : 2
Format                      : AVC
Format/Info                 : Advanced Video Codec
Format profile              : [email protected]
Format settings             : 1 Ref Frames
Format settings, CABAC      : No
Format settings, ReFrames   : 1 frame
Muxing mode                 : Container [email protected]
Codec ID                    : avc1
Codec ID/Info               : Advanced Video Coding
Duration                    : 1 h 11 min
Bit rate                    : 8 273 kb/s
Width                       : 1 280 pixels
Height                      : 720 pixels
Display aspect ratio        : 16:9
Frame rate mode             : Constant
Frame rate                  : 29.970 (30000/1001) FPS
Original frame rate         : 29.000 FPS
Color space                 : YUV
Chroma subsampling          : 4:2:0
Bit depth                   : 8 bits
Scan type                   : Progressive
Bits/(Pixel*Frame)          : 0.300
Stream size                 : 4.14 GiB (98%)
Language                    : English
Menus                       : 3

Audio
ID                          : 1
Format                      : AAC
Format/Info                 : Advanced Audio Codec
Format profile              : LC
Codec ID                    : mp4a-40-2
Duration                    : 1 h 11 min
Bit rate mode               : Variable
Bit rate                    : 128 kb/s
Maximum bit rate            : 173 kb/s
Channel(s)                  : 2 channels
Channel positions           : Front: L R
Sampling rate               : 44.1 kHz
Frame rate                  : 43.066 FPS (1024 SPF)
Compression mode            : Lossy
Stream size                 : 65.5 MiB (2%)



Đăng ký VPS Vultr giá rẻ

Link 1 : http://4share.vn/d/794c4e4a494d4148

Mọi thắc mắc và hỗ trợ liên hệ qua : 0934.363.833 ( Zalo,Viber ) và Skype: key4vip.info

Bảng giá các loại bản quyền của Microsoft ( đầy đủ tất cả ) tại đây :
Bản quyền Windows Server 2008 R2 ( Click ) - Windows Server 2012 R2 ( Click )
Windows Server 2016 Standard và Datacenter ( Click )

Bản quyền Windows 10 Home - Pro - Edu và Enterprise ( Click )
Bản quyền Windows 7 Pro ( Click ) - Windows 7 Ultimate ( Click )

Bản quyền Office 2010 Standard ( Click ) - Office 2010 Pro Plus ( Click )
Bản quyền Office 2013 Pro Plus ( Click ) ,Bản quyền Office 2013 Pro Plus ( Click )
Tuyển tập các bài hát chọn lọc hay nhất của bé Xuân Mai Reviewed by Bản quyền phần mềm 0934363833 on 2:53 PM Rating: 5 1. Giới thiệu chương trình nghệ sĩ Thanh Bạch 2. Cây trúc xinh ( Dân ca quan họ ) 3. Rap 36 phố phường 4. Hò Ba Ly ( Dân ca Quảng N...

No comments: